Animal 2014 1080p BluRay

0
AÇIKLAMA RESİMLERYorum yap
   

Animal 2014 1080p BluRay Türkçe Yama
 

Animal 2014 1080p BluRay - Full PC Türkçe
   

Animal 2014 1080p BluRay

Animal 2014 1080p BluRay Animal.2014.1080p.BluRay.REMUX.AVC.DTS-HD.MA.5.1-RARBG

Screens:

Info:

[mediainfo]

Video
ID : 1
Format : AVC
Format/Info : Advanced Video Codec
Format profile : [email protected]
Format settings, CABAC : Yes
Format settings, ReFrames : 2 frames
Codec ID : V_MPEG4/ISO/AVC
Duration : 1h 21mn
Bit rate mode : Variable
Maximum bit rate : 38.2 Mbps
Width : 1 920 pixels
Height : 1 080 pixels
Display aspect ratio : 16:9
Frame rate mode : Constant
Frame rate : 23.976 fps
Color space : YUV
Chroma subsampling : 4:2:0
Bit depth : 8 bits
Scan type : Progressive
Language : English
Default : No
Forced : No

Audio #1
ID : 2
Format : DTS
Format/Info : Digital Theater Systems
Format profile : MA / Core
Mode : 16
Format settings, Endianness : Big
Codec ID : A_DTS
Duration : 1h 21mn
Bit rate mode : Variable
Bit rate : Unknown / 1 509 Kbps
Channel(s) : 6 channels
Channel positions : Front: L C R, Side: L R, LFE
Sampling rate : 48.0 KHz
Bit depth : 24 bits
Compression mode : Lossless / Lossy
Title : Surround 5.1
Language : English
Default : Yes
Forced : No

Audio #2
ID : 3
Format : DTS
Format/Info : Digital Theater Systems
Mode : 16
Format settings, Endianness : Big
Codec ID : A_DTS
Duration : 1h 21mn
Bit rate mode : Constant
Bit rate : 1 509 Kbps
Channel(s) : 6 channels
Channel positions : Front: L C R, Side: L R, LFE
Sampling rate : 48.0 KHz
Bit depth : 24 bits
Compression mode : Lossy
Stream size : 885 MiB (5%)
Title : Surround 5.1
Language : English
Default : No
Forced : No

Audio #3
ID : 4
Format : DTS
Format/Info : Digital Theater Systems
Format profile : MA / Core
Mode : 16
Format settings, Endianness : Big
Codec ID : A_DTS
Duration : 1h 21mn
Bit rate mode : Variable
Bit rate : Unknown / 1 509 Kbps
Channel(s) : 2 channels
Channel positions : Front: L R
Sampling rate : 48.0 KHz
Bit depth : 24 bits
Compression mode : Lossless / Lossy
Title : Stereo
Language : English
Default : No
Forced : No

Audio #4
ID : 5
Format : DTS
Format/Info : Digital Theater Systems
Mode : 16
Format settings, Endianness : Big
Codec ID : A_DTS
Duration : 1h 21mn
Bit rate mode : Constant
Bit rate : 1 509 Kbps
Channel(s) : 2 channels
Channel positions : Front: L R
Sampling rate : 48.0 KHz
Bit depth : 24 bits
Compression mode : Lossy
Stream size : 885 MiB (5%)
Title : Stereo
Language : English
Default : No
Forced : No

Audio #5
ID : 6
Format : DTS
Format/Info : Digital Theater Systems
Format profile : MA / Core
Mode : 16
Format settings, Endianness : Big
Codec ID : A_DTS
Duration : 1h 21mn
Bit rate mode : Variable
Bit rate : Unknown / 768 Kbps
Channel(s) : 1 channel
Channel positions : Front: C
Sampling rate : 48.0 KHz
Bit depth : 24 bits
Compression mode : Lossless / Lossy
Title : Mono
Language : English
Default : No
Forced : No

Audio #6
ID : 7
Format : DTS
Format/Info : Digital Theater Systems
Mode : 16
Format settings, Endianness : Big
Codec ID : A_DTS
Duration : 1h 21mn
Bit rate mode : Constant
Bit rate : 768 Kbps
Channel(s) : 1 channel
Channel positions : Front: C
Sampling rate : 48.0 KHz
Bit depth : 24 bits
Compression mode : Lossy
Stream size : 450 MiB (2%)
Title : Mono
Language : English
Default : No
Forced : No

Text
ID : 8
Format : PGS
Codec ID : S_HDMV/PGS
Codec ID/Info : The same subtitle format used on BDs/HD-DVDs
Language : English
Default : No
Forced : No

Menu
00:00:00.000 : en:Chapter 01
00:03:46.684 : en:Chapter 02
00:15:53.661 : en:Chapter 03
00:24:35.348 : en:Chapter 04
00:38:08.327 : en:Chapter 05
00:50:56.928 : en:Chapter 06
01:13:09.802 : en:Chapter 07
01:19:04.948 : en:Chapter 08
01:21:46.192 : en:Chapter 09

[/mediainfo]

Notes:
Greetz to all! :)

 

Animal 2014 1080p BluRay
 

Animal 2014 1080p BluRay Full crack İndir
         

Animal 2014 1080p BluRay Oyun Hakkında Yorum Ve Görüşlerinizi Bizimle Paylaşınız.

 

Animal 2014 1080p BluRay - Full PC Türkçe
 
300
OYUN BILGILERI 2 sene önce eklendi
Animal 2014 1080p BluRay

Tür: HD Torrent Filmler

Platform: HD FİLMLER

Boyut: 19.15 GB

Etiketler:

BENZER OYUNLAR
Titanium 2014 FRENCH
1.678 bakılma
YORUMLAR Yorum Yapmak Istermisiniz ?

Anında Yeni Oyunlardan Haber Alın.

Sayfayı Beğen 🙂

GÜNCEL OYUNLARI TAKİP EDİN!