Awaken 2015 1080p BluRay indir

0
AÇIKLAMA RESİMLERYorum yap
   

Awaken 2015 1080p BluRay indir Türkçe Yama
 

Awaken 2015 1080p BluRay indir - Full PC Türkçe
   

Awaken 2015 1080p BluRay indir

Awaken 2015 1080p BluRay indir
https://rarbg.to
Awaken.2015.1080p.BluRay.x264.DD5.1-RARBG

Screens :

Mediainfo :

Video
ID : 1
Format : AVC
Format/Info : Advanced Video Codec
Format profile : [email protected]
Format settings, CABAC : Yes
Format settings, ReFrames : 4 frames
Codec ID : V_MPEG4/ISO/AVC
Duration : 1h 28mn
Bit rate : 10.9 Mbps
Nominal bit rate : 11.5 Mbps
Width : 1 920 pixels
Height : 1 080 pixels
Display aspect ratio : 16:9
Frame rate mode : Constant
Frame rate : 23.976 fps
Color space : YUV
Chroma subsampling : 4:2:0
Bit depth : 8 bits
Scan type : Progressive
Bits/(Pixel*Frame) : 0.219
Stream size : 6.74 GiB (94%)
Title : Awaken.2015.1080p.BluRay.x264.DD5.1-RARBG
Writing library : x264 core 144 r96 40bb568
Encoding settings : cabac=1 / ref=4 / deblock=1:-2:-2 / analyse=0x3:0x113 / me=umh / subme=7 / psy=1 / psy_rd=1.00:0.15 / mixed_ref=1 / me_range=16 / chroma_me=1 / trellis=1 / 8x8dct=1 / cqm=0 / deadzone=21,11 / fast_pskip=1 / chroma_qp_offset=-3 / threads=12 / lookahead_threads=3 / sliced_threads=0 / nr=0 / decimate=1 / interlaced=0 / bluray_compat=0 / constrained_intra=0 / bframes=3 / b_pyramid=2 / b_adapt=2 / b_bias=0 / direct=3 / weightb=1 / open_gop=0 / weightp=2 / keyint=250 / keyint_min=25 / scenecut=40 / intra_refresh=0 / rc_lookahead=50 / rc=abr / mbtree=1 / bitrate=11500 / ratetol=1.0 / qcomp=0.60 / qpmin=0 / qpmax=69 / qpstep=4 / vbv_maxrate=31250 / vbv_bufsize=31250 / nal_hrd=none / filler=0 / ip_ratio=1.40 / aq=1:1.00
Language : English
Default : Yes
Forced : No

Audio
ID : 2
Format : AC-3
Format/Info : Audio Coding 3
Mode extension : CM (complete main)
Format settings, Endianness : Big
Codec ID : A_AC3
Duration : 1h 28mn
Bit rate mode : Constant
Bit rate : 448 Kbps
Channel(s) : 6 channels
Channel positions : Front: L C R, Side: L R, LFE
Sampling rate : 48.0 KHz
Bit depth : 16 bits
Compression mode : Lossy
Stream size : 284 MiB (4%)
Title : Awaken.2015.1080p.BluRay.x264.DD5.1-RARBG
Language : English
Default : Yes
Forced : No

Menu
00:00:00.000 : en:Chapter 01
00:00:08.258 : en:Chapter 02
00:11:10.503 : en:Chapter 03
00:22:12.247 : en:Chapter 04
00:33:14.450 : en:Chapter 05
00:44:15.944 : en:Chapter 06
00:55:17.605 : en:Chapter 07
01:06:20.267 : en:Chapter 08
01:17:22.179 : en:Chapter 09

 

Awaken 2015 1080p BluRay indir
 

Awaken 2015 1080p BluRay indir Full crack İndir
         

Awaken 2015 1080p BluRay indir Oyun Hakkında Yorum Ve Görüşlerinizi Bizimle Paylaşınız.

 

Awaken 2015 1080p BluRay indir - Full PC Türkçe
 
200
OYUN BILGILERI 2 sene önce eklendi
Awaken 2015 1080p BluRay indir

Tür: HD Torrent Filmler

Platform: FİLMLER

Boyut: 7.16 GB

Tarih: 22-07-2015

Dil: İNGİLİZCE

Etiketler:

BENZER OYUNLAR
Titanium 2014 FRENCH
1.676 bakılma
YORUMLAR Yorum Yapmak Istermisiniz ?

Anında Yeni Oyunlardan Haber Alın.

Sayfayı Beğen 🙂

GÜNCEL OYUNLARI TAKİP EDİN!