Dracula Untold 2014

0
AÇIKLAMA RESİMLERYorum yap
   

Dracula Untold 2014 Türkçe Yama
 

Dracula Untold 2014 - Full PC Türkçe
   

Dracula Untold 2014

Dracula Untold 2014

http://www.imdb.com/title/tt0829150/

Facing threats to his kingdom and his family, Vlad Tepes makes a deal with dangerous supernatural forces – whilst trying to avoid succumbing to the darkness himself.

Director: Gary Shore
Writers: Matt Sazama, Burk Sharpless
Stars: Luke Evans, Dominic Cooper, Sarah Gadon
Genres: Action,Drama,Fantasy,Horror,War
Country: USA
Language: English

Format : AVI
Format/Info : Audio Video Interleave
File size : 815 MiB
Duration : 1h 24mn
Overall bit rate : 1 344 Kbps
Writing library : VirtualDub build 32842/release

Video
ID : 0
Format : MPEG-4 Visual
Format profile : Advanced [email protected]
Format settings, BVOP : 2
Format settings, QPel : No
Format settings, GMC : No warppoints
Format settings, Matrix : Default (H.263)
Muxing mode : Packed bitstream
Codec ID : XVID
Codec ID/Hint : XviD
Duration : 1h 24mn
Bit rate : 1 205 Kbps
Width : 688 pixels
Height : 288 pixels
Display aspect ratio : 2.40:1
Frame rate : 29.970 fps
Color space : YUV
Chroma subsampling : 4:2:0
Bit depth : 8 bits
Scan type : Progressive
Compression mode : Lossy
Bits/(Pixel*Frame) : 0.203
Stream size : 730 MiB (90%)
Writing library : XviD 64

Audio
ID : 1
Format : AC-3
Format/Info : Audio Coding 3
Mode extension : CM (complete main)
Codec ID : 2000
Duration : 1h 24mn
Bit rate mode : Constant
Bit rate : 128 Kbps
Channel(s) : 2 channels
Channel positions : Front: L R
Sampling rate : 48.0 KHz
Bit depth : 16 bits
Compression mode : Lossy
Stream size : 77.5 MiB (10%)
Alignment : Aligned on interleaves
Interleave, duration : 33 ms (1.00 video frame)
Interleave, preload duration : 512 ms

 

Dracula Untold 2014
 

Dracula Untold 2014 Full crack İndir
         

Dracula Untold 2014 Oyun Hakkında Yorum Ve Görüşlerinizi Bizimle Paylaşınız.

 

Dracula Untold 2014 - Full PC Türkçe
 
327
OYUN BILGILERI 2 sene önce eklendi
Dracula Untold 2014

Tür: HD Torrent Filmler

Platform: HD FİLMLER

Boyut: 826.62 MB

Etiketler:

BENZER OYUNLAR
Titanium 2014 FRENCH
1.679 bakılma
YORUMLAR Yorum Yapmak Istermisiniz ?

Anında Yeni Oyunlardan Haber Alın.

Sayfayı Beğen 🙂

GÜNCEL OYUNLARI TAKİP EDİN!