Fifty Shades of Grey 2015 1080p

0
AÇIKLAMA RESİMLERYorum yap
   

Fifty Shades of Grey 2015 1080p Türkçe Yama
 

Fifty Shades of Grey 2015 1080p - Full PC Türkçe
   

Fifty Shades of Grey 2015 1080p

Fifty Shades of Grey 2015 1080p
http://www.imdb.com/title/tt2322441/

Literature student Anastasia Steele’s life changes forever when she meets handsome, yet tormented, billionaire Christian Grey.

Director: Sam Taylor-Johnson
Writers: Kelly Marcel (screenplay), E.L. James (novel)
Stars: Dakota Johnson, Jamie Dornan, Jennifer Ehle
Genres: Drama | Romance
Country: USA
Language: English

Source: R6 THX

OK nice new source, it is complete from begining to end.. no editing of sex scenes, or cuts in audio-video. Unfortunately has the HC chinese subs. But other than that a perfect complete copy.. Enjoy

General

Format : Matroska
Format version : Version 2
File size : 1.48 GiB
Duration : 2h 5mn
Overall bit rate : 1 693 Kbps
Encoded date : UTC 2015-03-06 17:46:58

Video
ID : 1
Format : AVC
Format/Info : Advanced Video Codec
Format profile : [email protected]
Format settings, CABAC : Yes
Format settings, ReFrames : 9 frames
Codec ID : V_MPEG4/ISO/AVC
Duration : 2h 5mn
Bit rate : 1 500 Kbps
Width : 720 pixels
Height : 300 pixels
Display aspect ratio : 2.40:1
Frame rate mode : Constant
Frame rate : 25.000 fps
Color space : YUV
Chroma subsampling : 4:2:0
Bit depth : 8 bits
Scan type : Progressive
Bits/(Pixel*Frame) : 0.278
Stream size : 1.28 GiB (87%)
Default : Yes
Forced : No

Audio
ID : 2
Format : AC-3
Format/Info : Audio Coding 3
Mode extension : CM (complete main)
Format settings, Endianness : Big
Codec ID : A_AC3
Duration : 2h 5mn
Bit rate mode : Constant
Bit rate : 192 Kbps
Channel(s) : 2 channels
Channel positions : Front: L R
Sampling rate : 48.0 KHz
Bit depth : 16 bits
Compression mode : Lossy
Stream size : 172 MiB (11%)
Default : Yes
Forced : No

 

Fifty Shades of Grey 2015 1080p
 

Fifty Shades of Grey 2015 1080p Full crack İndir
         

Fifty Shades of Grey 2015 1080p Oyun Hakkında Yorum Ve Görüşlerinizi Bizimle Paylaşınız.

 

Fifty Shades of Grey 2015 1080p - Full PC Türkçe
 
366
OYUN BILGILERI 2 sene önce eklendi
Fifty Shades of Grey 2015 1080p

Tür: HD Torrent Filmler

Platform: FİLMLER

Boyut: 1.48 GB

Tarih: 16-07-2015

Dil: İNGİLİZCE

Etiketler:

BENZER OYUNLAR
Titanium 2014 FRENCH
1.679 bakılma
YORUMLAR Yorum Yapmak Istermisiniz ?

Anında Yeni Oyunlardan Haber Alın.

Sayfayı Beğen 🙂

GÜNCEL OYUNLARI TAKİP EDİN!