Grinin Elli Tonu Fifty Shades of Grey 2015 720p

0
AÇIKLAMA RESİMLERYorum yap
   

Grinin Elli Tonu Fifty Shades of Grey 2015 720p Türkçe Yama
 

Grinin Elli Tonu Fifty Shades of Grey 2015 720p - Full PC Türkçe
   

Grinin Elli Tonu Fifty Shades of Grey 2015 720p

Grinin Elli Tonu Fifty Shades of Grey 2015 720pFilm Özeti
Edebiyat ögrencisi olan Anastasia Steele, genç girişimci Christian Grey’le röportaj yapmaya gittiğinde son derece çekici, zeki ve sinir bozucu bir adamla karşılaşır. Toy ve masum Anastasia, bu adama duyduğu arzu karşısında şaşkına döner ve adamın gizemli doğasına rağmen ona yakınlaşma arzusuyla yanıp tutuşur. Anastasia’nın güzelliği, zekâsı ve özgür ruhuna direnemeyen Grey de onu istediğini kabul eder, ancak şartları vardır…

Grey’in sıra dışı erotik istekleri karşısında şoka uğayan ama bir yandan da heyecana kapılan Anastasia tereddüde
Fifty.Shades.of.Grey.2015.720p.HC.WEBRip.XviD.MP3-RARBG

Screens:

Info:

[mediainfo]

Format : AVI
Format/Info : Audio Video Interleave
Format profile : OpenDML
File size : 2.77 GiB
Duration : 2h 0mn
Overall bit rate : 3 298 Kbps
Movie name : RARBG.COM – Fifty.Shades.of.Grey.2015.720p.HC.WEBRip.XviD.MP3-RARBG
Writing library : VirtualDub build 35491/release
Comment : RARBG.COM – Fifty.Shades.of.Grey.2015.720p.HC.WEBRip.XviD.MP3-RARBG

Video
ID : 0
Format : MPEG-4 Visual
Format profile : [email protected]
Format settings, BVOP : No
Format settings, QPel : No
Format settings, GMC : No warppoints
Format settings, Matrix : Default (H.263)
Codec ID : XVID
Codec ID/Hint : XviD
Duration : 2h 0mn
Bit rate : 3 093 Kbps
Width : 1 280 pixels
Height : 534 pixels
Display aspect ratio : 2.40:1
Frame rate : 23.976 fps
Color space : YUV
Chroma subsampling : 4:2:0
Bit depth : 8 bits
Scan type : Progressive
Compression mode : Lossy
Bits/(Pixel*Frame) : 0.189
Stream size : 2.59 GiB (94%)
Writing library : Lavc56.20.100

Audio
ID : 1
Format : MPEG Audio
Format version : Version 1
Format profile : Layer 3
Mode : Joint stereo
Mode extension : MS Stereo
Codec ID : 55
Codec ID/Hint : MP3
Duration : 2h 0mn
Bit rate mode : Constant
Bit rate : 192 Kbps
Channel(s) : 2 channels
Sampling rate : 44.1 KHz
Compression mode : Lossy
Stream size : 165 MiB (6%)
Alignment : Aligned on interleaves
Interleave, duration : 26 ms (0.63 video frame)
Interleave, preload duration : 522 ms
Writing library : LAME3.99.5

[/mediainfo]

Notes:
Hardcoded Chinese subtitles.
Greetz to all! :)

 

Grinin Elli Tonu Fifty Shades of Grey 2015 720p
 

Grinin Elli Tonu Fifty Shades of Grey 2015 720p Full crack İndir
         

Grinin Elli Tonu Fifty Shades of Grey 2015 720p Oyun Hakkında Yorum Ve Görüşlerinizi Bizimle Paylaşınız.

 

Grinin Elli Tonu Fifty Shades of Grey 2015 720p - Full PC Türkçe
 
1.175
OYUN BILGILERI 2 sene önce eklendi
BENZER OYUNLAR
Titanium 2014 FRENCH
1.676 bakılma
YORUMLAR Yorum Yapmak Istermisiniz ?

Anında Yeni Oyunlardan Haber Alın.

Sayfayı Beğen 🙂

GÜNCEL OYUNLARI TAKİP EDİN!