Jurassic World 2015 1080p HD

0
AÇIKLAMA RESİMLERYorum yap
   

Jurassic World 2015 1080p HD Türkçe Yama
 

Jurassic World 2015 1080p HD - Full PC Türkçe
   

Jurassic World 2015 1080p HD

Jurassic World 2015 1080p HD

[mediainfo]
Video
ID : 1
Format : AVC
Format/Info : Advanced Video Codec
Format profile : [email protected]
Format settings, CABAC : Yes
Format settings, ReFrames : 4 frames
Codec ID : avc1
Codec ID/Info : Advanced Video Coding
Duration : 2h 4mn
Bit rate : 4 500 Kbps
Width : 1 906 pixels
Height : 952 pixels
Display aspect ratio : 2.002
Frame rate mode : Constant
Frame rate : 29.970 fps
Color space : YUV
Chroma subsampling : 4:2:0
Bit depth : 8 bits
Scan type : Progressive
Bits/(Pixel*Frame) : 0.083
Stream size : 3.80 GiB (95%)
Title : Jurassic.World.2015.1080p.HDRip.KORSUB.x264.AAC2.0-RARBG
Writing library : x264 core 144 r2525M 40bb568
Encoding settings : cabac=1 / ref=4 / deblock=1:0:0 / analyse=0x3:0x113 / me=umh / subme=7 / psy=1 / psy_rd=1.00:0.15 / mixed_ref=1 / me_range=16 / chroma_me=1 / trellis=1 / 8x8dct=1 / cqm=0 / deadzone=21,11 / fast_pskip=1 / chroma_qp_offset=-3 / threads=40 / lookahead_threads=8 / sliced_threads=0 / nr=0 / decimate=1 / interlaced=0 / bluray_compat=0 / constrained_intra=0 / bframes=3 / b_pyramid=2 / b_adapt=2 / b_bias=0 / direct=3 / weightb=1 / open_gop=0 / weightp=2 / keyint=250 / keyint_min=25 / scenecut=40 / intra_refresh=0 / rc_lookahead=50 / rc=abr / mbtree=1 / bitrate=4500 / ratetol=1.0 / qcomp=0.60 / qpmin=0 / qpmax=69 / qpstep=4 / ip_ratio=1.40 / aq=1:1.00
Language : English

Audio
ID : 2
Format : AAC
Format/Info : Advanced Audio Codec
Format profile : LC
Codec ID : 40
Duration : 2h 4mn
Bit rate mode : Constant
Bit rate : 224 Kbps
Channel(s) : 2 channels
Channel positions : Front: L R
Sampling rate : 48.0 KHz
Compression mode : Lossy
Stream size : 199 MiB (5%)
Title : Jurassic.World.2015.1080p.HDRip.KORSUB.x264.AAC2.0-RARBG
Language : English

[/mediainfo]

 

Jurassic World 2015 1080p HD
 

Jurassic World 2015 1080p HD Full crack İndir
         

Jurassic World 2015 1080p HD Oyun Hakkında Yorum Ve Görüşlerinizi Bizimle Paylaşınız.

 

Jurassic World 2015 1080p HD - Full PC Türkçe
 
1.115
OYUN BILGILERI 2 sene önce eklendi
Jurassic World 2015 1080p HD

Tür: HD Torrent Filmler

Platform: FİLMLER

Boyut: 4 GB

Tarih: 16-07-2015

Dil: İNGİLİZCE

Etiketler:

BENZER OYUNLAR
Titanium 2014 FRENCH
1.676 bakılma
YORUMLAR Yorum Yapmak Istermisiniz ?

Anında Yeni Oyunlardan Haber Alın.

Sayfayı Beğen 🙂

GÜNCEL OYUNLARI TAKİP EDİN!