Mad Max Fury Road 2015 1080p

0
AÇIKLAMA RESİMLERYorum yap
   

Mad Max Fury Road 2015 1080p Türkçe Yama
 

Mad Max Fury Road 2015 1080p - Full PC Türkçe
   

Mad Max Fury Road 2015 1080p

Mad Max Fury Road 2015 1080p

[mediainfo]
Video
ID : 1
Format : AVC
Format/Info : Advanced Video Codec
Format profile : [email protected]
Format settings, CABAC : Yes
Format settings, ReFrames : 5 frames
Codec ID : V_MPEG4/ISO/AVC
Duration : 2h 0mn
Bit rate : 4 351 Kbps
Width : 1 912 pixels
Height : 792 pixels
Display aspect ratio : 2.40:1
Frame rate mode : Constant
Frame rate : 23.976 fps
Color space : YUV
Chroma subsampling : 4:2:0
Bit depth : 8 bits
Scan type : Progressive
Bits/(Pixel*Frame) : 0.120
Stream size : 3.66 GiB (90%)
Title : Mad.Max.Fury.Road.2015.1080p.WEB-DL.DD5.1.H264-RARBG
Language : English
Default : Yes
Forced : No
Color range : Limited
Color primaries : BT.709
Transfer characteristics : BT.709
Matrix coefficients : BT.709

Audio
ID : 2
Format : AC-3
Format/Info : Audio Coding 3
Mode extension : CM (complete main)
Format settings, Endianness : Big
Codec ID : A_AC3
Duration : 2h 0mn
Bit rate mode : Constant
Bit rate : 384 Kbps
Channel(s) : 6 channels
Channel positions : Front: L C R, Side: L R, LFE
Sampling rate : 48.0 KHz
Bit depth : 16 bits
Compression mode : Lossy
Stream size : 331 MiB (8%)
Title : Mad.Max.Fury.Road.2015.1080p.WEB-DL.DD5.1.H264-RARBG
Language : English
Default : Yes
Forced : No

Text
ID : 3
Format : UTF-8
Codec ID : S_TEXT/UTF8
Codec ID/Info : UTF-8 Plain Text
Language : English
Default : Yes
Forced : No

Menu
00:00:00.000 : en:1
00:10:42.000 : en:2
00:19:06.000 : en:3
00:30:13.000 : en:4
00:42:55.000 : en:5
00:49:33.000 : en:6
00:59:55.000 : en:7
01:13:02.000 : en:8
01:22:08.000 : en:9
01:30:02.000 : en:10
01:40:39.000 : en:11
01:49:12.000 : en:12
01:53:05.000 : en:13

[/mediainfo]

 

Mad Max Fury Road 2015 1080p
 

Mad Max Fury Road 2015 1080p Full crack İndir
         

Mad Max Fury Road 2015 1080p Oyun Hakkında Yorum Ve Görüşlerinizi Bizimle Paylaşınız.

 

Mad Max Fury Road 2015 1080p - Full PC Türkçe
 
2.213
OYUN BILGILERI 2 sene önce eklendi
Mad Max Fury Road 2015 1080p

Tür: HD Torrent Filmler

Platform: FİLMLER

Boyut: 4.06 GB

Tarih: 16-07-2015

Dil: İNGİLİZCE

Etiketler:

BENZER OYUNLAR
Titanium 2014 FRENCH
1.678 bakılma
YORUMLAR Yorum Yapmak Istermisiniz ?

Anında Yeni Oyunlardan Haber Alın.

Sayfayı Beğen 🙂

GÜNCEL OYUNLARI TAKİP EDİN!