Minions 2015 1080p

0
AÇIKLAMA RESİMLERYorum yap
   

Minions 2015 1080p Türkçe Yama
 

Minions 2015 1080p - Full PC Türkçe
   

Minions 2015 1080p

Minions 2015 1080p
http://www.imdb.com/title/tt2293640/

Minions Stuart, Kevin and Bob are recruited by Scarlet Overkill, a super-villain who, alongside her inventor husband Herb, hatches a plot to take over the world.

Directors: Kyle Balda, Pierre Coffin
Writer: Brian Lynch
Stars: Pierre Coffin, Sandra Bullock, Jon Hamm
Genres: Animation | Comedy | Family
Country: USA
Language: English

Basic Information
Format: AVI
Format/Info: Audio Video Interleave
File size: 1.37 GiB
Duration: 1h 23mn
Overall bit rate: 2 339 Kbps
Writing application: VirtualDubMod 1.5.10.2 (build

2540/release)
Writing library: VirtualDubMod build 2540/release

Video
ID: 0
Format: MPEG-4 Visual
Format profile: Advanced [email protected]
Format settings, BVOP: 2
Format settings, QPel: No
Format settings, GMC: No warppoints
Format settings, Matrix: Default (MPEG)
Muxing mode: Packed bitstream
Codec ID: XVID
Codec ID/Hint: XviD
Duration: 1h 23mn
Bit rate: 2 071 Kbps
Width: 680 pixels
Height: 336 pixels
Display aspect ratio: 2.024
Frame rate: 29.970 fps
Color space: YUV
Chroma subsampling: 4:2:0
Bit depth: 8 bits
Scan type: Progressive
Compression mode: Lossy
Bits/(Pixel*Frame): 0.302
Stream size: 1.21 GiB (89%)
Writing library: XviD 66

Audio
ID: 1
Format: AC-3
Format/Info: Audio Coding 3
Mode extension: CM (complete main)
Format settings, Endianness: Big
Codec ID: 2000
Duration: 1h 23mn
Bit rate mode: Constant
Bit rate: 256 Kbps
Channel(s): 2 channels
Channel positions: Front: L R
Sampling rate: 48.0 KHz
Bit depth: 16 bits
Compression mode: Lossy
Stream size: 154 MiB (11%)
Alignment: Split accross interleaves
Interleave, duration: 33 ms (1.00 video frame)
Interleave, preload duration: 500 ms

E N C O D E R S . N O T E S

SOURCE: ViDEO…EVE, HiVE CM8 HD Video: AUDiO…HiVE-CM8 release
SAMPLE: Yippers
ADDED NOTE: well had both cams handy. not alota time so started to work. BOOM!!!

Then it’s dropped and all the work dun by EVE & Hive. so grabbed Hive’s flipped

through and thought, has too much red in it for me liking so decided to work on

this (as all the work been done already) adjusted rgb, lvls, sharp, noise, gain and

a few other tidbits

*READNFO* begin audio is pretty loud and abbresive but damn gud with that

exception. Cheers to Hive for the lipsync and S4NDM4N for the cap… also in via

the screens you can see 2 screen caps the show the difference in vids used. still

pretty damn nice copy… cheers to all involved

 

Minions 2015 1080p
 

Minions 2015 1080p Full crack İndir
         

Minions 2015 1080p Oyun Hakkında Yorum Ve Görüşlerinizi Bizimle Paylaşınız.

 

Minions 2015 1080p - Full PC Türkçe
 
1.709
OYUN BILGILERI 2 sene önce eklendi
Minions 2015 1080p

Tür: HD Torrent Filmler

Platform: FİLMLER

Boyut: 1.39 GB

Tarih: 16-07-2015

Dil: İNGİLİZCE

Etiketler:

BENZER OYUNLAR
Titanium 2014 FRENCH
1.676 bakılma
YORUMLAR Yorum Yapmak Istermisiniz ?

Anında Yeni Oyunlardan Haber Alın.

Sayfayı Beğen 🙂

GÜNCEL OYUNLARI TAKİP EDİN!