Minyonlar Minions 2015 HD

0
AÇIKLAMA RESİMLERYorum yap
   

Minyonlar Minions 2015 HD Türkçe Yama
 

Minyonlar Minions 2015 HD - Full PC Türkçe
   

Minyonlar Minions 2015 HD

Minyonlar Minions 2015 HDFilm Özeti
Tarihin başlangıcından itibaren varolan minionlar, çağlar boyunca tek bir amaca sahip olmuştur: Kötü bir efendiye hizmet etmek. Bu uğurda dinozorlardan Firavun’a, Napolyon’dan Dracula’ya pek kişiyi deneseler de hepsinin sonu yok olmak olur. Sonunda Antarktika’ya yerleşip insandan uzak bir yaşam kurarlar. Ancak 1960’lı yıllar geldiğinde bir grup maceracı minion, Amerika’ya gider ve kendilerine yeni efendiler aramaya başlarlar.
Çılgın Hırsız serisinin öncesini anlatan Minions, 4 Eylül 2015’te ülkemizde gösterime girecek.
Vizyon Tarihi: 04 Eylül 2015
Yapımı : 2015 – ABD
Tür : Animasyon , Aile , Komedi
Yönetmen : Pierre Coffin, Kyle Balda
Oyuncular : –
Seslendirenler : Sandra Bullock , Steve Carell , Jon Hamm , Hiroyuki Sanada , Jennifer Saunders
Senaryo : Brian Lynch
Yapımcı : Illumination Entertainment


Screens:

http://imgmak.com/M9

http://imgmak.com/M6

http://imgmak.com/My

http://imgmak.com/Mv

http://imgmak.com/MH

http://imgmak.com/MG

 

Minions.2015.HD-TS.XVID.AC3.HQ.Hive-CM8 Thx Hive CM8 Doing It Right The First Time Sources: Video: both Portuguese HD-Cams Audio: Sweet Line Big Thx to S4NDM4N Notes: First Portuguese cam has great quality as it should be, but was missing some minutes, Second time they went they did a complete version, bit more zoomed in and a bit unsharp, but still ok to watch. They wont go a third time i read, and i do think its not needed anyways, Movie hits most of europe in august, so a 720p is not around within the next month and by that time a web-dl might be out already. this will do just fine. It would be easier to just use the second cam cause its complete but why not use the better one as main body and fill in the gaps from the 2nd one, to get a perfect release. Took me 6 further hours to cut in the parts, so video is now complete and even the afterend credits are now fully there, so all from 0 to end Encode: First cam was great as mentioned, but needed rotating and fixing perspective, fixed rgb added sharpness and removed some flicker Second cam was not that sharp, cause it was zoomed in a bit, i added borders and centered to meet the resolution of first cam. Audio was very good again thx S4NDM4N, Lipsynced audio to my video will do me till retail enjoy Video: 680x336 @bitrate 2200 2pass Audio: English Line Stereo 2.0 Sample: yes included you have access to 0 day HDCams? msg me http://www.imdb.com/title/tt2293640/ General Complete name : Minions.2015.HD-TS.XVID.AC3.HQ.Hive-CM8.avi Format : AVI Format/Info : Audio Video Interleave File size : 1.29 GiB Duration : 1h 23mn Overall bit rate : 2 206 Kbps Video ID : 0 Format : MPEG-4 Visual Format profile : Advanced [email protected] Format settings, BVOP : 2 Format settings, QPel : Yes Format settings, GMC : No warppoints Format settings, Matrix : Default (H.263) Muxing mode : Packed bitstream Codec ID : XVID Codec ID/Hint : XviD Duration : 1h 23mn Bit rate : 2 200 Kbps Width : 680 pixels Height : 336 pixels Display aspect ratio : 2.024 Frame rate : 29.970 fps Color space : YUV Chroma subsampling : 4:2:0 Bit depth : 8 bits Scan type : Progressive Compression mode : Lossy Bits/(Pixel*Frame) : 0.321 Stream size : 1.29 GiB (100%) Writing library : XviD 1.2.1 (UTC 2008-12-04) Audio ID : 1 Format : AC-3 Format/Info : Audio Coding 3 Mode extension : CM (complete main) Format settings, Endianness : Big Codec ID : 2000 Duration : 1h 23mn Bit rate mode : Constant Bit rate : 256 Kbps Channel(s) : 2 channels Channel positions : Front: L R Sampling rate : 48.0 KHz Bit depth : 16 bits Compression mode : Lossy Stream size : 158 MiB (12%) Alignment : Split accross interleaves Interleave, duration : 42 ms (1.00 video frame) Interleave, preload duration : 500 ms

Torrent: [ENGLISH]Terminator Genisys – 2015 – ENG – x264 – AAC – Makintos13

[ENGLISH]Terminator Genisys – 2015 – ENG – x264 – AAC – Makintos13
Jul 2, 2015 in Movies.  Verified.  486.36 MB84472294D71769EB0E9B215207B0591FBEF2CF81

372  892/10   3/10   6/10

 

Minyonlar Minions 2015 HD
 

Minyonlar Minions 2015 HD Full crack İndir
         

Minyonlar Minions 2015 HD Oyun Hakkında Yorum Ve Görüşlerinizi Bizimle Paylaşınız.

 

Minyonlar Minions 2015 HD - Full PC Türkçe
 
5.091
OYUN BILGILERI 2 sene önce eklendi
Minyonlar Minions 2015 HD

Tür: HD Torrent Filmler

Platform: HD FİLMLER

Boyut: 1.47 GB

Tarih: 07-07-2015

Dil: İNGİLİZCE

Etiketler:

BENZER OYUNLAR
Titanium 2014 FRENCH
1.676 bakılma
YORUMLAR Yorum Yapmak Istermisiniz ?

Anında Yeni Oyunlardan Haber Alın.

Sayfayı Beğen 🙂

GÜNCEL OYUNLARI TAKİP EDİN!