Poltergeist 2015 SCREENER 1080p

0
AÇIKLAMA RESİMLERYorum yap
   

Poltergeist 2015 SCREENER 1080p Türkçe Yama
 

Poltergeist 2015 SCREENER 1080p - Full PC Türkçe
   

Poltergeist 2015 SCREENER 1080p

Poltergeist 2015 SCREENER 1080p

[mediainfo]
Video
ID : 2
Format : AVC
Format/Info : Advanced Video Codec
Format profile : [email protected]
Format settings, CABAC : Yes
Format settings, ReFrames : 4 frames
Codec ID : V_MPEG4/ISO/AVC
Duration : 1h 33mn
Bit rate : 6 383 Kbps
Width : 1 920 pixels
Height : 800 pixels
Display aspect ratio : 2.40:1
Frame rate mode : Constant
Frame rate : 23.976 fps
Color space : YUV
Chroma subsampling : 4:2:0
Bit depth : 8 bits
Scan type : Progressive
Bits/(Pixel*Frame) : 0.173
Stream size : 4.18 GiB (89%)
Writing library : x264 core 146 r2538 121396c
Encoding settings : cabac=1 / ref=4 / deblock=1:-2:-2 / analyse=0x3:0x133 / me=umh / subme=10 / psy=1 / psy_rd=1.00:0.00 / mixed_ref=1 / me_range=32 / chroma_me=1 / trellis=2 / 8x8dct=1 / cqm=0 / deadzone=21,11 / fast_pskip=1 / chroma_qp_offset=-2 / threads=18 / lookahead_threads=2 / sliced_threads=0 / nr=0 / decimate=1 / interlaced=0 / bluray_compat=0 / constrained_intra=0 / bframes=5 / b_pyramid=2 / b_adapt=2 / b_bias=0 / direct=3 / weightb=1 / open_gop=0 / weightp=2 / keyint=250 / keyint_min=23 / scenecut=40 / intra_refresh=0 / rc_lookahead=60 / rc=crf / mbtree=1 / crf=17.0 / qcomp=0.60 / qpmin=0 / qpmax=69 / qpstep=4 / ip_ratio=1.40 / aq=1:1.00
Language : English
Default : Yes
Forced : No
Color range : Limited
Matrix coefficients : BT.709

Audio
ID : 1
Format : AC-3
Format/Info : Audio Coding 3
Mode extension : CM (complete main)
Format settings, Endianness : Big
Codec ID : A_AC3
Duration : 1h 33mn
Bit rate mode : Constant
Bit rate : 640 Kbps
Channel(s) : 6 channels
Channel positions : Front: L C R, Side: L R, LFE
Sampling rate : 48.0 KHz
Bit depth : 16 bits
Compression mode : Lossy
Stream size : 429 MiB (9%)
Default : Yes
Forced : No
DURATION : 01:33:39.078000000
NUMBER_OF_FRAMES : 134723
NUMBER_OF_BYTES : 4582482357
_STATISTICS_WRITING_APP : mkvmerge v7.8.0 (‘River Man’) 64bit built on Mar 27 2015 16:31:37
_STATISTICS_WRITING_DATE_UTC : 2015-05-29 13:16:51
_STATISTICS_TAGS : BPS DURATION NUMBER_OF_FRAMES NUMBER_OF_BYTES

[/mediainfo]

 

Poltergeist 2015 SCREENER 1080p
 

Poltergeist 2015 SCREENER 1080p Full crack İndir
         

Poltergeist 2015 SCREENER 1080p Oyun Hakkında Yorum Ve Görüşlerinizi Bizimle Paylaşınız.

 

Poltergeist 2015 SCREENER 1080p - Full PC Türkçe
 
275
OYUN BILGILERI 2 sene önce eklendi
Poltergeist 2015 SCREENER 1080p

Tür: HD Torrent Filmler

Platform: HD FİLMLER

Boyut: 4.78 GB

Tarih: 07-07-2015

Dil: İNGİLİZCE

Etiketler:

BENZER OYUNLAR
Titanium 2014 FRENCH
1.678 bakılma
YORUMLAR Yorum Yapmak Istermisiniz ?

Anında Yeni Oyunlardan Haber Alın.

Sayfayı Beğen 🙂

GÜNCEL OYUNLARI TAKİP EDİN!