San Andreas 2015 1080p indir

0
AÇIKLAMA RESİMLERYorum yap
   

San Andreas 2015 1080p indir Türkçe Yama
 

San Andreas 2015 1080p indir - Full PC Türkçe
   

San Andreas 2015 1080p indir

San Andreas 2015 1080p indirscreens:

INFO:

San Andreas {2015} NEW HDTS H264 AC3-MRG

Format : AVI
Format/Info : Audio Video Interleave
File size : 1.27 GiB
Duration : 1h 47mn
Overall bit rate : 1 697 Kbps
Writing library : VirtualDub build 35491/release

Video
ID : 0
Format : AVC
Format/Info : Advanced Video Codec
Format profile : [email protected]
Format settings, CABAC : Yes
Format settings, ReFrames : 4 frames
Codec ID : H264
Duration : 1h 47mn
Bit rate : 1 559 Kbps
Width : 720 pixels
Height : 320 pixels
Display aspect ratio : 2.25:1
Frame rate : 25.000 fps
Color space : YUV
Chroma subsampling : 4:2:0
Bit depth : 8 bits
Scan type : Progressive
Bits/(Pixel*Frame) : 0.271
Stream size : 1.17 GiB (92%)
Writing library : x264 core

Audio
ID : 1
Format : AC-3
Format/Info : Audio Coding 3
Mode extension : CM (complete main)
Format settings, Endianness : Big
Codec ID : 2000
Duration : 1h 47mn
Bit rate mode : Constant
Bit rate : 128 Kbps
Channel(s) : 2 channels
Channel positions : Front: L R
Sampling rate : 48.0 KHz
Compression mode : Lossy
Delay relative to video : 32ms
Stream size : 98.0 MiB (8%)
Alignment : Split accross interleaves
Interleave, duration : 40 ms (1.00 video frame)
Interleave, preload duratio : 500 ms

 

San Andreas 2015 1080p indir
 

San Andreas 2015 1080p indir Full crack İndir
         

San Andreas 2015 1080p indir Oyun Hakkında Yorum Ve Görüşlerinizi Bizimle Paylaşınız.

 

San Andreas 2015 1080p indir - Full PC Türkçe
 
1.417
OYUN BILGILERI 2 sene önce eklendi
San Andreas 2015 1080p indir

Tür: HD Torrent Filmler

Platform: FİLMLER

Boyut: 1.27 GB

Tarih: 22-07-2015

Dil: İNGİLİZCE

Etiketler:

BENZER OYUNLAR
Titanium 2014 FRENCH
1.678 bakılma
YORUMLAR Yorum Yapmak Istermisiniz ?

Anında Yeni Oyunlardan Haber Alın.

Sayfayı Beğen 🙂

GÜNCEL OYUNLARI TAKİP EDİN!