Sex After Kids (2013)

0
AÇIKLAMA RESİMLERYorum yap
   

Sex After Kids (2013) Türkçe Yama
 

Sex After Kids (2013) - Full PC Türkçe
   

Sex After Kids (2013)

Sex After Kids (2013)
http://www.imdb.com/title/tt2301147/
http://www.filmweb.pl/film/Seks+po+dzieciach-2013-650880

gatunek: Komedia
produkcja: Kanada
premiera: 26-01-2013
reżyseria: Jeremy Lalonde
scenariusz: Jeremy Lalonde
muzyka: Thomas Kratz
zdjęcia: Ann Tipper,Zach Melnick
czas: 01:46:22

opis:

A disparate variety of couples from all walks of life strive to maintain active sex lives despite
the notable distraction of having kids.

Historie ludzie, którzy starają się zapanować nad życiem miłosnym i jednocześnie być dobrymi
rodzicami. Jules (Shannon Beckner) i Ben (Ennis Esmer) próbuje dopasować grafik swojego nowo
narodzonego dziecka do własnych potrzeb. Peyton (Paul Amos) usiłuje wpłynąć na samotną Lou
(Zoie Palmer), by przestała się alienować i zaczęła w końcu spotykać się z ludźmi.
Lesbijki Larissa (Mary Krohnert) i Jody (Kate Hewlett) zauważają, że mają różne koncepcje
na temat wychowywania dzieci. Samotny ojciec Gage (Kris Holden-Ried) zamierza zrezygnować
z niezobowiązujących romansów. Horton (Jay Brazeau) i Dolores (Mimi Kuzyk) są parą z wieloletnim
stażem. Szukają sposobu na ożywienie wygasłej namiętności.

obsada:

Paul Amos, Shannon Beckner, Katie Boland

dane techniczne:

Sex After Kids (2013)-alE13.mkv
Format : Matroska
Format version : Version 4 / Version 2
File size : 3.95 GiB
Duration : 1h 46mn
Overall bit rate : 5 321 Kbps
Movie name : Sex After Kids (2013)-alE13
Encoded date : UTC 2015-01-09 16:56:01
Writing application : mkvmerge v6.7.0
Writing library : libebml v1.3.0 + libmatroska v1.4.1

Video
ID : 1
Format : AVC
Format/Info : Advanced Video Codec
Format profile : [email protected]
Format settings, CABAC : Yes
Format settings, ReFrames : 2 frames
Codec ID : V_MPEG4/ISO/AVC
Duration : 1h 46mn
Bit rate : 4 319 Kbps
Width : 1 280 pixels
Height : 720 pixels
Display aspect ratio : 16:9
Frame rate mode : Constant
Frame rate : 23.976 fps
Color space : YUV
Chroma subsampling : 4:2:0
Bit depth : 8 bits
Scan type : Progressive
Bits/(Pixel*Frame) : 0.195
Stream size : 3.21 GiB (81%)
Writing library : x264 core
Default : Yes
Forced : No
Color primaries : BT.709
Transfer characteristics : BT.709
Matrix coefficients : BT.709
Color range : Limited

Audio #1
ID : 2
Format : AC-3
Format/Info : Audio Coding 3
Mode extension : CM (complete main)
Format settings, Endianness : Big
Codec ID : A_AC3
Duration : 1h 46mn
Bit rate mode : Constant
Bit rate : 256 Kbps
Channel(s) : 2 channels
Channel positions : Front: L R
Sampling rate : 48.0 KHz
Bit depth : 16 bits
Compression mode : Lossy
Delay relative to video : 789ms
Stream size : 195 MiB (5%)
Title : Sex After Kids (2013)-alE13_AC3
Language : Polish
Default : Yes

Audio #2
ID : 3
Format : AC-3
Format/Info : Audio Coding 3
Mode extension : CM (complete main)
Format settings, Endianness : Big
Codec ID : A_AC3
Duration : 1h 46mn
Bit rate mode : Constant
Bit rate : 640 Kbps
Channel(s) : 6 channels
Channel positions : Front: L C R, Side: L R, LFE
Sampling rate : 48.0 KHz
Bit depth : 16 bits
Compression mode : Lossy
Stream size : 487 MiB (12%)
Title : Sex After Kids (2013)-alE13_AC3
Language : English

Menu
00:00:00.000 : en:00:00:00.000
00:09:59.974 : en:00:09:59.974
00:19:59.990 : en:00:19:59.990
00:29:59.965 : en:00:29:59.965
00:39:59.981 : en:00:39:59.981
00:49:59.997 : en:00:49:59.997
00:59:59.971 : en:00:59:59.971
01:09:59.987 : en:01:09:59.987
01:19:59.962 : en:01:19:59.962

 

Sex After Kids (2013)
 

Sex After Kids (2013) Full crack İndir
         

Sex After Kids (2013) Oyun Hakkında Yorum Ve Görüşlerinizi Bizimle Paylaşınız.

 

Sex After Kids (2013) - Full PC Türkçe
 
4.341
OYUN BILGILERI 2 sene önce eklendi
Sex After Kids (2013)

Tür: HD Torrent Filmler

Platform: HD FİLMLER

Boyut: 3.95 GB

Etiketler:

BENZER OYUNLAR
Titanium 2014 FRENCH
1.676 bakılma
YORUMLAR Yorum Yapmak Istermisiniz ?

Anında Yeni Oyunlardan Haber Alın.

Sayfayı Beğen 🙂

GÜNCEL OYUNLARI TAKİP EDİN!