Terminator Genisys {2015} HD

0
AÇIKLAMA RESİMLERYorum yap
   

Terminator Genisys {2015} HD Türkçe Yama
 

Terminator Genisys {2015} HD - Full PC Türkçe
   

Terminator Genisys {2015} HD

Terminator Genisys {2015} HDFilm Özeti
İnsan direnişinin lideri John Connor (Jason Clarke), Çavuş Kyle Reese’i (Jai Courtney) Sarah Connor’ı (Emilia Clarke) koruması ve geleceği güvence altına alması için 1984’e geri gönderdiğinde olayların beklenmedik bir şekilde yön değiştirmesi zaman çizgisinde kırılma yaratır. Şimdi kendisini geçmişin yeni ve yabancı bir versiyonunda bulan Çavuş Reese, Gardiyan’ın da (Arnold Schwarzenegger) dahil olduğu olasılık dışı müttefiklerle, tehlikeli yeni düşmanlarla ve beklenmedik “geleceği yeniden başlatmak” göreviyle karşı karşıya kalır.
Terminatör 5, Arnold Schwarzenegger’in 3. filmden sonra ilk kez Terminatör rolünü üstleneceği film oldu.
Vizyon Tarihi: 26 Haziran 2015
Yapımı : 2015 – ABD
Tür : Bilim Kurgu , Aksiyon , Gerilim , Macera
Süre: 126 Dak.
Yönetmen : Alan Taylor
Oyuncular : Arnold Schwarzenegger , Emilia Clarke , J.K. Simmons , Lee Byung-hun , Matt Smith
Senaryo : James Cameron , Mark Jones
Yapımcı : James Cameron , Gale Anne Hurd
Diğer Adı : Terminator 5

Terminator Genisys {2015} HQCAM XVID MP3-MRG Format : AVI Format/Info : Audio Video Interleave File size : 1.87 GiB Duration : 1h 56mn Overall bit rate : 2 287 Kbps Video ID : 0 Format : MPEG-4 Visual Format profile : Advanced [email protected] Format settings, BVOP : 2 Format settings, QPel : No Format settings, GMC : No warppoints Format settings, Matrix : Default (H.263) Muxing mode : Packed bitstream Codec ID : XVID Codec ID/Hint : XviD Duration : 1h 56mn Bit rate : 1 956 Kbps Width : 720 pixels Height : 324 pixels Display aspect ratio : 2.222 Frame rate : 29.970 fps Color space : YUV Chroma subsampling : 4:2:0 Bit depth : 8 bits Scan type : Progressive Compression mode : Lossy Bits/(Pixel*Frame) : 0.280 Stream size : 1.60 GiB (86%) Writing library : XviD 73 Audio ID : 1 Format : MPEG Audio Format version : Version 1 Format profile : Layer 3 Mode : Joint stereo Mode extension : MS Stereo Codec ID : 55 Codec ID/Hint : MP3 Duration : 1h 55mn Bit rate mode : Constant Bit rate : 320 Kbps Channel(s) : 2 channels Sampling rate : 48.0 KHz Compression mode : Lossy Stream size : 265 MiB (14%) Alignment : Aligned on interleaves Interleave, duration : 24 ms (0.73 video frame) Interleave, preload duratio : 1260 ms Writing library : LAME3.99.5 
 

Terminator Genisys {2015} HD
 

Terminator Genisys {2015} HD Full crack İndir
         

Terminator Genisys {2015} HD Oyun Hakkında Yorum Ve Görüşlerinizi Bizimle Paylaşınız.

 

Terminator Genisys {2015} HD - Full PC Türkçe
 
3.341
OYUN BILGILERI 2 sene önce eklendi
Terminator Genisys {2015} HD

Tür: HD Torrent Filmler

Platform: HD FİLMLER

Boyut: 1.87 GB

Tarih: 07-07-2015

Dil: İNGİLİZCE

Etiketler:

BENZER OYUNLAR
Titanium 2014 FRENCH
1.680 bakılma
YORUMLAR Yorum Yapmak Istermisiniz ?

Anında Yeni Oyunlardan Haber Alın.

Sayfayı Beğen 🙂

GÜNCEL OYUNLARI TAKİP EDİN!